Anal destruction mpeg samples

SWEET SAMPLES – JP SPL



All scream for ass cream

anal destruction



black anal pics

Candy Samples, Scene 2



Duration : 00:02:03.31 = 5437927 samples = 9248.18 CDDA sectors. File Size  : 5.16M Bit Rate : 335k. Sample Encoding: MPEG audio (layer I, II or III)

Anal Foto Mpeg Sex



anal gallery nude woman

Candy Samples, Scene 3



Free fisting outdoors tubes

Candy Samples, Scene 1



Duration : 00:00:32.29 = 1423989 samples = 2421.75 CDDA sectors. File Size  : 1.36M Bit Rate : 336k. Sample Encoding: MPEG audio (layer I, II or III)

CANDY SAMPLES



college guide to anal sex

CANDY SAMPLES



anal contamination cross sex

mpeg-000-20150712 155816.mp4.mpeg

Lesbian mpeg orgy

Ebony Anal Destruction



anal black first
Anal destruction movie. Anal gallery mpeg. Anal destruction mpeg samples. Anal destruction gallery, anal gallery mpeg. Anal destruction series. Double anal destruction. Anal clip free hardcore movie. Myths facts about anal sex …. Anal destruction dvd. Anal sex gratis. Naked anal sex. … anal thumbnails. Anal destruction video · anal bead girl using. Anal free fuck pic. Anal sex gratis. Video post anal. … lesbian teen ass lick. Put word high res pics latino with thrust new slide bottoms tits where.undress to comfortable anal sex cumming gallerys lump scene couples girlfriend …. Xxx anal. Anal photo wart …. Navigator reccomend double anal destruction. Ass fucking samples. Teen anal pic. … porn star anal movie free …. Fat anal dildo, asian anal mpeg …. Free anal hoes. … free first time anal mpeg …. Duration : 00:07:06.83 = 18823247 samples = 32012.3 cdda sectors. file size : 17.6m bit rate : 331k. sample encoding: mpeg audio (layer i, ii or iii). Anal destruction series. Highly parallel single-molecule identification of proteins in zeptomole-scale mixtures | nature biotechnology. Anal best mpeg sex …. Matilda’s kitchen and bathroom scat destruction. Anal sex video and free sample. Duration : 00:01:05.91 = 2906763 samples = 4943.47 cdda sectors. file size : 2.77m bit rate : 336k. sample encoding: mpeg audio (layer …. Busty anal. … anal dom mpeg. Matilda’s kitchen and bathroom scat destruction. part 1.mp4 – 1.3 gb · matilda’s kitchen and bathroom scat destruction. part 2.mp4 – 1.1 gb. Anal double gallery. Anal bead pic. … cock thief too …. Anal wreckage free samples. … anal destruction dvd. Anal oral porn sex …. Sammy sable – triple dragon anal creampie – full hd-1080p, cream pie, huge dildo, wet & messy (release january 1, 2018). Anal gallery virgin, free hardcore anal sex …. Free anal porn mpeg. Latina teens anal wmv. Figure cn103215328bd00181. Women shower gym nude. Ebony anal mpeg. Nanomaterials 09 00147 g001. Porn film samples blowjob mpeg sample sexes sexe porn charlie angel ebony weeds masturbation speech gigantic tits tgp. Duration : 00:00:42.22 = 1861770 samples = 3166.28 cdda sectors. file size : 1.76m bit rate : 333k. sample encoding: mpeg audio (layer i, …. . Download figure …. Ass guba hole play sex. Figure imgb0002. Fat black ass thumbs. Ultrasound-targeted microbubble destruction augments protein delivery into testes | request pdf. Figure imgf000052_0001. Scheme …. Figure imgf000076_0001. (pdf) a simple protocol for the extraction and sequence analysis of dna from study skin of museum collections. Extreme anal destruction. Controlled/living surface-initiated atrp of antifouling polymer brushes from gold in pbs and blood sera as a model study for polymer modifications in …. Girl get fucked outside. Anal black fat girl. Download figure …. Saturday program teen beach. Reduction-triggered delivery using nucleoside-lipid based carriers possessing a cleavable peg coating | request pdf. Anal milf amateur,nude busty milfs,asian anal destruction,gorgeous milf squirting,. Synthesis of mpeg-pamam g5.nhac. Notes: (a) samples with different concentrations of ptx-a10-3.2-plga nbs (2.5, 5, 10, 20, and 40 mg/ml), brightness mode and contrast mode.. . Figure imgb0007. Figure imgb0005. . … a illustration of the preparation and drug release of salecan/pmaa semi-ipn hydrogels; b in vitro dox release behaviors from the semi-ipn sample …. Figure 1. Figure imgf000023_0001. Hot asian women models. Figure cn102159249ad00351. (pdf) a simple protocol for the extraction and sequence analysis of dna from study skin of museum collections. Recent progress of icp-ms in the development of metal-based drugs and diagnostic agents. (pdf) a simple protocol for the extraction and sequence analysis of dna from study skin of museum collections.